1000s of errors in seemingly clean file

PoBear

New member
Hi

I have a file that visually appears to be clean, I have played it in VR and VLC and there are no obvious video or audio errors.

The file is reported as being MPEG 1/2 in a .TS container

I initially rendered it to H.264 in an MP4 container and had 1000s of errors and lost around 4 minutes from the file.

I've also tried an MP4 container with no render and leaving it in the original .TS errors are reduced but only by about 1% or 2%.

I can understand the H.264 but not the other two which as I understand it should have copied the video asis with just small renders around the cuts.

This isn't the first time I have had a file with this number of errors being reported.

Thanks in advance.
 

Dan203

Ex-Senior Developer
Can you please open the original file in MediaInfo, switch to text view abd copy/paste the info here?

 

PoBear

New member
Here you go

General
ID : 4 (0x4)
Complete name : F:\Video02\MCEBuddy\$MP4\DC's Legends Of Tomorrow - Pick - 2019-01-07 - 20_00.ts
Format : MPEG-TS
File size : 772 MiB
Duration : 1 h 4 min
Overall bit rate mode : Variable
Overall bit rate : 1 664 kb/s

Video
ID : 48 (0x30)
Menu ID : 137 (0x89)
Format : MPEG Video
Format version : Version 2
Format profile : Main@Main
Format settings : CustomMatrix / BVOP
Format settings, BVOP : Yes
Format settings, Matrix : Custom
Format settings, GOP : Variable
Codec ID : 2
Duration : 1 h 4 min
Bit rate mode : Variable
Bit rate : 1 453 kb/s
Maximum bit rate : 15.0 Mb/s
Width : 544 pixels
Height : 576 pixels
Display aspect ratio : 16:9
Active Format Description : Full frame 16:9 image
Frame rate : 25.000 FPS
Color space : YUV
Chroma subsampling : 4:2:0
Bit depth : 8 bits
Scan type : Progressive
Scan order : Top Field First
Compression mode : Lossy
Bits/(Pixel*Frame) : 0.185
Stream size : 674 MiB (87%)

Audio
ID : 64 (0x40)
Menu ID : 137 (0x89)
Format : MPEG Audio
Format version : Version 1
Format profile : Layer 2
Format settings : Joint stereo
Codec ID : 3
Duration : 1 h 4 min
Bit rate mode : Constant
Bit rate : 128 kb/s
Channel(s) : 2 channels
Sampling rate : 48.0 kHz
Frame rate : 41.667 FPS (1152 SPF)
Compression mode : Lossy
Delay relative to video : -684 ms
Stream size : 59.4 MiB (8%)
Language : English

Text
ID : 80 (0x50)
Menu ID : 137 (0x89)
Format : DVB Subtitle
Codec ID : 6
Duration : 1 h 4 min
Delay relative to video : 2 s 480 ms
Language : English
 

Dan203

Ex-Senior Developer
Nothing about that file should be an issue. Did you try running it through Quick Stream Fix?

if not run it through QSF and if you don’t get the errors there then edit the fixed file instead. It could just be bad muxing in the original video causing the problem. Just QSF to the Transport Stream profile with no recoding.
 
Top Bottom