Saving video from zoom mp4s hangs

Ryland

Member
Im trying to break a series of recorded zoom calls into segments and find that my attempts to save the segments ends up only getting part way done and then stops saving. The "working" image on the left side changes to a warning image and all I can do is hit Abort. The calls are saved in .mp4 with the first video stream at 1776x900 at 25FPS using AVC High@L5 and audio is 1 channel AAC at 32khz. Quickstream fix also hangs. Im using version 6.6.2.823.
 

Dan203

Senior Developer
Staff member
That's likely an error in the source file causing the stall. Try running the file through QuickStream Fix first, then edit the fixed file.
 

Dan203

Senior Developer
Staff member
Can you open the file in MediaInfo and post the info here? Just want to see if there is anything obvious
 

Ryland

Member
Here you go:

General
Complete name : D:\temp\9.19 Zoom.mp4
Format : MPEG-4
Format profile : Base Media / Version 2
Codec ID : mp42 (isom/mp42)
File size : 743 MiB
Duration : 1 h 11 min
Overall bit rate mode : Variable
Overall bit rate : 1 454 kb/s
Encoded date : UTC 2020-09-19 15:42:40
Tagged date : UTC 2020-09-19 15:42:40

Video
ID : 2
Format : AVC
Format/Info : Advanced Video Codec
Format profile : High@L5
Format settings : CABAC / 11 Ref Frames
Format settings, CABAC : Yes
Format settings, RefFrames : 11 frames
Codec ID : avc1
Codec ID/Info : Advanced Video Coding
Duration : 1 h 11 min
Bit rate : 1 399 kb/s
Width : 1 280 pixels
Height : 720 pixels
Display aspect ratio : 16:9
Frame rate mode : Constant
Frame rate : 25.000 FPS
Color space : YUV
Chroma subsampling : 4:2:0
Bit depth : 8 bits
Scan type : Progressive
Bits/(Pixel*Frame) : 0.061
Stream size : 714 MiB (96%)
Encoded date : UTC 2020-09-19 15:42:40
Tagged date : UTC 2020-09-19 15:42:40

Audio
ID : 1
Format : AAC
Format/Info : Advanced Audio Codec
Format profile : LC
Codec ID : mp4a-40-2
Duration : 1 h 11 min
Bit rate mode : Variable
Bit rate : 53.4 kb/s
Maximum bit rate : 126 kb/s
Channel(s) : 1 channel
Channel positions : Front: C
Sampling rate : 32.0 kHz
Frame rate : 31.250 FPS (1024 SPF)
Compression mode : Lossy
Stream size : 27.2 MiB (4%)
Title : AAC audio
Encoded date : UTC 2020-09-19 15:42:40
Tagged date : UTC 2020-09-19 15:42:40
 

Dan203

Senior Developer
Staff member
That should be fine. 11 reference frames is a lot but that should have no effect on QSF. Might be a problem for editing though.

If you are willing to send a sample so I can test then send me an email at support AT videoredo.com

If you want to keep testing yourself there are two things I would try...

1) Try recoding the audio and setting the sampling rate to 48kHz. Some times 32kHz can cause issues because it's sample size is fractional and causes weird little jumps in the time codes.

2) If that doesn't work try forcing a recode on the entire video. You can still edit first, but when saving set the profile to Force Recode. Also set the audio to recode to 48kHz for this one as well.

Let me know how both tests go.
 

musicvid

Member
We're having trouble with this stuff in Vegas, too.
The specs are so low (1400 Kbps, 50 Kbps audio) that it hardly seems worth it for editing.
 
Top Bottom