Unable to open mp4 (VRD TV Suite 4.21.10.681)

Rev1979

New member
Why am I unable to open the following

Complete name : C:\Users\RevAd\Desktop\0015.MP4
Format : MPEG-4
Format profile : Base Media / Version 2
Codec ID : mp42 (isom/avc1/mp42)
File size : 1.07 GiB
Duration : 10 min 15 s
Overall bit rate : 14.9 Mb/s
Movie_More : CarDV-TURNKEY
Encoded date : UTC 2014-01-01 08:45:49
Tagged date : UTC 2014-01-01 08:45:49
Origin : NVT-IM

Video
ID : 1
Format : AVC
Format/Info : Advanced Video Codec
Format profile : High@L4.1
Format settings : CABAC / 1 Ref Frames
Format settings, CABAC : Yes
Format settings, Reference frames : 1 frame
Format settings, GOP : M=1, N=15
Codec ID : avc1
Codec ID/Info : Advanced Video Coding
Duration : 10 min 15 s
Bit rate : 14.7 Mb/s
Width : 1 440 pixels
Height : 1 080 pixels
Display aspect ratio : 4:3
Frame rate mode : Constant
Frame rate : 30.000 FPS
Color space : YUV
Chroma subsampling : 4:2:0
Bit depth : 8 bits
Scan type : Progressive
Bits/(Pixel*Frame) : 0.316
Stream size : 1.06 GiB (99%)
Language : English
Encoded date : UTC 2014-01-01 08:45:49
Tagged date : UTC 2014-01-01 08:45:49
Codec configuration box : avcC
 

Rev1979

New member
Why am I unable to open the following

Complete name : C:\Users\RevAd\Desktop\0015.MP4
Format : MPEG-4
Format profile : Base Media / Version 2
Codec ID : mp42 (isom/avc1/mp42)
File size : 1.07 GiB
Duration : 10 min 15 s
Overall bit rate : 14.9 Mb/s
Movie_More : CarDV-TURNKEY
Encoded date : UTC 2014-01-01 08:45:49
Tagged date : UTC 2014-01-01 08:45:49
Origin : NVT-IM

Video
ID : 1
Format : AVC
Format/Info : Advanced Video Codec
Format profile : High@L4.1
Format settings : CABAC / 1 Ref Frames
Format settings, CABAC : Yes
Format settings, Reference frames : 1 frame
Format settings, GOP : M=1, N=15
Codec ID : avc1
Codec ID/Info : Advanced Video Coding
Duration : 10 min 15 s
Bit rate : 14.7 Mb/s
Width : 1 440 pixels
Height : 1 080 pixels
Display aspect ratio : 4:3
Frame rate mode : Constant
Frame rate : 30.000 FPS
Color space : YUV
Chroma subsampling : 4:2:0
Bit depth : 8 bits
Scan type : Progressive
Bits/(Pixel*Frame) : 0.316
Stream size : 1.06 GiB (99%)
Language : English
Encoded date : UTC 2014-01-01 08:45:49
Tagged date : UTC 2014-01-01 08:45:49
Codec configuration box : avcC
Never mind - Version 6 trial opened it, so I'll just upgrade
 

Danr

Administrator
Staff member
TVSuite Version 4 requires all files to have an audio stream and it appears from the media info that yours doesn't. Please try TVSuite V6.
 
Top Bottom